<?xml version="1.0" standalone="no"?>
<!DOCTYPE svg PUBLIC "-//W3C//DTD SVG 1.1//EN" "http://www.w3.org/Graphics/SVG/1.1/DTD/svg11.dtd">
<svg xmlns="http://www.w3.org/2000/svg">
<metadata>Copyright (C) 2015 by original authors @ fontello.com</metadata>
<defs>
<font id="kindeditor" horiz-adv-x="1000" >
<font-face font-family="kindeditor" font-weight="400" font-stretch="normal" units-per-em="1000" ascent="850" descent="-150" />
<missing-glyph horiz-adv-x="1000" />
<glyph glyph-name="preview" unicode="&#xe800;" d="m458 517c-69 0-125-56-125-125s56-125 125-125 125 56 125 125-56 125-125 125z m334 208h-584c-46 0-83-37-83-83v-584c0-46 37-83 83-83h584c46 0 83 37 83 83v584c0 46-37 83-83 83z m-59-667l-160 160c-33-22-72-35-115-35-115 0-208 94-208 209s93 208 208 208 209-93 209-208c0-43-13-82-35-115l160-160-59-59z" horiz-adv-x="1000" />
<glyph glyph-name="print" unicode="&#xe801;" d="m792 517h-584c-69 0-125-56-125-125v-250h167v-167h500v167h167v250c0 69-56 125-125 125z m-125-459h-334v209h334v-209z m125 292c-23 0-42 19-42 42s19 41 42 41c23 0 41-18 41-41s-18-42-41-42z m-42 375h-500v-167h500v167z" horiz-adv-x="1000" />
<glyph glyph-name="quickformat" unicode="&#xe802;" d="m583 142h-416v-84h416v84z m250 333h-666v-83h666v83z m-666-250h666v83h-666v-83z m0 417v-84h666v84h-666z" horiz-adv-x="1000" />
<glyph glyph-name="media" unicode="&#xe803;" d="m708 413v145c0 23-18 42-41 42h-500c-23 0-42-19-42-42v-416c0-23 19-42 42-42h500c23 0 41 19 41 42v146l167-167v458l-167-166z" horiz-adv-x="1000" />
<glyph glyph-name="template" unicode="&#xe804;" d="m833 683h-666c-46 0-83-37-83-83l-1-500c0-46 38-83 84-83h666c46 0 84 37 84 83v500c0 46-38 83-84 83z m-208-583h-458v167h458v-167z m0 208h-458v167h458v-167z m208-208h-166v375h166v-375z" horiz-adv-x="1000" />
<glyph glyph-name="copy" unicode="&#xe805;" d="m667 808h-500c-46 0-84-37-84-83v-583h84v583h500v83z m125-166h-459c-46 0-83-38-83-84v-583c0-46 37-83 83-83h459c46 0 83 37 83 83v583c0 46-37 84-83 84z m0-667h-459v583h459v-583z" horiz-adv-x="1000" />
<glyph glyph-name="cut" unicode="&#xe806;" d="m402 532c9 21 15 44 15 68 0 92-75 167-167 167s-167-75-167-167 75-167 167-167c24 0 48 6 68 15l99-98-99-98c-20 9-44 15-68 15-92 0-167-75-167-167s75-167 167-167 167 75 167 167c0 24-6 48-15 68l98 99 292-292h125v42l-515 515z m-152-15c-46 0-83 37-83 83s37 83 83 83 83-37 83-83-37-83-83-83z m0-500c-46 0-83 37-83 83s37 83 83 83 83-37 83-83-37-83-83-83z m250 312c-11 0-21 10-21 21s10 21 21 21 21-9 21-21-9-21-21-21z m292 396l-250-250 83-83 292 291v42z" horiz-adv-x="1000" />
<glyph glyph-name="paste" unicode="&#xe807;" d="m792 767h-175c-17 48-63 83-117 83s-100-35-117-83h-175c-46 0-83-38-83-84v-666c0-46 37-84 83-84h584c46 0 83 38 83 84v666c0 46-37 84-83 84z m-292 0c23 0 42-19 42-42s-19-42-42-42-42 19-42 42 19 42 42 42z m292-750h-584v666h84v-125h416v125h84v-666z" horiz-adv-x="1000" />
<glyph glyph-name="redo" unicode="&#xe808;" d="m767 408c-77 68-178 109-288 109-194 0-357-127-415-301l99-33c44 134 169 230 316 230 82 0 156-30 213-79l-150-151h375v375l-150-150z" horiz-adv-x="1000" />
<glyph glyph-name="selectall" unicode="&#xe809;" d="m125 642h83v83c-46 0-83-37-83-83z m0-334h83v84h-83v-84z m167-333h83v83h-83v-83z m-167 500h83v83h-83v-83z m417 250h-84v-83h84v83z m250 0v-83h83c0 46-37 83-83 83z m-584-750v83h-83c0-46 37-83 83-83z m-83 167h83v83h-83v-83z m250 583h-83v-83h83v83z m83-750h84v83h-84v-83z m334 333h83v84h-83v-84z m0-333c46 0 83 37 83 83h-83v-83z m0 500h83v83h-83v-83z m0-333h83v83h-83v-83z m-167-167h83v83h-83v-83z m0 667h83v83h-83v-83z m-333-500h416v416h-416v-416z m83 333h250v-250h-250v250z" horiz-adv-x="1000" />
<glyph glyph-name="plainpaste" unicode="&#xe810;" d="m863 73l-43 0 0-43c0-47-38-85-85-85l-470 0c-47 0-85 38-85 85l0 43-43 0c-23 0-42 19-42 42l0 256c0 24 19 43 42 43l43 0 0 256c0 47 38 85 85 85l342 0 42 0 171-170 0-43 0-128 43 0c23 0 42-19 42-43l0-256c0-23-19-42-42-42z m-640-43c0-23 19-43 42-43l470 0c23 0 42 20 42 43l0 43-554 0 0-43z m427 341l-49 0-16-46c-5-15-9-27-13-43l-1 0c-5 15-9 27-15 43l-16 46-50 0 53-126-55-130 49 0 16 47c6 18 11 31 15 46l1 0c5-15 10-28 17-46l17-47 50 0-57 131 54 125z m-186-147l0 47-70 0 0 53 75 0 0 47-119 0 0-256 123 0 0 48-79 0 0 61 70 0z m-284 147l0-48 52 0 0-208 43 0 0 208 52 0 0 48-147 0z m597 171l-85 0c-47 0-85 38-85 85l0 86-342 0c-23 0-42-19-42-43l0-256 554 0 0 128z m43-171l-147 0 0-48 51 0 0-208 44 0 0 208 52 0 0 48z" horiz-adv-x="1000" />
<glyph glyph-name="undo" unicode="&#xe811;" d="m521 517c-110 0-211-41-288-109l-150 150v-375h375l-150 151c57 49 131 79 213 79 148 0 273-96 316-230l99 33c-57 174-221 301-415 301z" horiz-adv-x="1000" />
<glyph glyph-name="insertfile" unicode="&#xe812;" d="m688 600v-479c0-92-75-167-167-167s-167 75-167 167v521c0 57 47 104 104 104s105-47 105-104v-438c0-23-19-41-42-41s-42 18-42 41v396h-62v-396c0-57 46-104 104-104s104 47 104 104v438c0 92-75 166-167 166s-166-74-166-166v-521c0-127 102-229 229-229s229 102 229 229v479h-62z" horiz-adv-x="1000" />
<glyph glyph-name="table" unicode="&#xe813;" d="m125 725v-750h750v750h-750z m333-667h-250v250h250v-250z m0 334h-250v250h250v-250z m334-334h-250v250h250v-250z m0 334h-250v250h250v-250z" horiz-adv-x="1000" />
<glyph glyph-name="bordercolor" unicode="&#xe814;" d="m740 558l-157 157-416-417v-156h156l417 416z m123 124c16 16 16 42 0 58l-98 98c-16 16-42 16-58 0l-82-82 156-156 82 82z m-863-665h1000v-167h-1000z" horiz-adv-x="1000" />
<glyph glyph-name="justifycenter" unicode="&#xe815;" d="m292 225v-83h416v83h-416z m-167-250h750v83h-750v-83z m0 333h750v84h-750v-84z m167 250v-83h416v83h-416z m-167 167v-83h750v83h-750z" horiz-adv-x="1000" />
<glyph glyph-name="justifyfull" unicode="&#xe816;" d="m125-25h750v83h-750v-83z m0 167h750v83h-750v-83z m0 166h750v84h-750v-84z m0 167h750v83h-750v-83z m0 250v-83h750v83h-750z" horiz-adv-x="1000" />
<glyph glyph-name="justifyleft" unicode="&#xe817;" d="m625 225h-500v-83h500v83z m0 333h-500v-83h500v83z m-500-250h750v84h-750v-84z m0-333h750v83h-750v-83z m0 750v-83h750v83h-750z" horiz-adv-x="1000" />
<glyph glyph-name="justifyright" unicode="&#xe818;" d="m125-25h750v83h-750v-83z m250 167h500v83h-500v-83z m-250 166h750v84h-750v-84z m250 167h500v83h-500v-83z m-250 250v-83h750v83h-750z" horiz-adv-x="1000" />
<glyph glyph-name="bold" unicode="&#xe819;" d="m650 400c40 29 69 74 69 117 0 94-73 166-167 166h-260v-583h293c87 0 155 71 155 158 0 63-36 117-90 142z m-233 179h125c34 0 62-28 62-62s-28-63-62-63h-125v125z m146-375h-146v125h146c34 0 62-28 62-62s-28-63-62-63z" horiz-adv-x="1000" />
<glyph glyph-name="removeformat" unicode="&#xe820;" d="m136 642l-53-53 291-291-103-240h125l65 153 236-236 53 53-614 614z m114 0v-8l118-117h99l-30-70 88-88 67 158h241v125h-583z" horiz-adv-x="1000" />
<glyph glyph-name="hilitecolor" unicode="&#xe821;" d="m690 478l-372 372-59-59 99-99-215-214c-24-25-24-64 0-89l230-229c12-12 28-18 44-18s32 6 44 18l229 229c24 25 24 64 0 89z m-473-45l200 200 200-200h-400z m575-62s-84-90-84-146c0-46 38-83 84-83s83 37 83 83c0 56-83 146-83 146z m-792-354h1000v-167h-1000z" horiz-adv-x="1000" />
<glyph glyph-name="forecolor" unicode="&#xe822;" d="m0 17h1000v-167h-1000z m458 708l-229-583h94l47 125h260l47-125h94l-229 583h-84z m-57-375l99 264 99-264h-198z" horiz-adv-x="1000" />
<glyph glyph-name="outdent" unicode="&#xe823;" d="m458 142h417v83h-417v-83z m-333 208l167-167v334l-167-167z m0-375h750v83h-750v-83z m0 750v-83h750v83h-750z m333-250h417v83h-417v-83z m0-167h417v84h-417v-84z" horiz-adv-x="1000" />
<glyph glyph-name="indent" unicode="&#xe824;" d="m125-25h750v83h-750v-83z m0 542v-334l167 167-167 167z m333-375h417v83h-417v-83z m-333 583v-83h750v83h-750z m333-250h417v83h-417v-83z m0-167h417v84h-417v-84z" horiz-adv-x="1000" />
<glyph glyph-name="italic" unicode="&#xe825;" d="m417 683v-125h92l-143-333h-116v-125h333v125h-92l143 333h116v125z" horiz-adv-x="1000" />
<glyph glyph-name="lineheight" unicode="&#xe826;" d="m250 558h104l-146 146-145-146h104v-416h-104l145-146 146 146h-104v416z m167 84v-84h500v84h-500z m0-584h500v84h-500v-84z m0 250h500v84h-500v-84z" horiz-adv-x="1000" />
<glyph glyph-name="insertunorderedlist" unicode="&#xe827;" d="m167 413c-35 0-63-28-63-63s28-62 63-62 62 27 62 62-28 63-62 63z m0 250c-35 0-63-28-63-63s28-62 63-62 62 27 62 62-28 63-62 63z m0-507c-31 0-56-25-56-56s25-56 56-56 55 25 55 56-25 56-55 56z m125-98h583v84h-583v-84z m0 250h583v84h-583v-84z m0 334v-84h583v84h-583z" horiz-adv-x="1000" />
<glyph glyph-name="insertorderedlist" unicode="&#xe828;" d="m83 142h84v-21h-42v-42h42v-21h-84v-41h125v166h-125v-41z m42 375h42v166h-84v-41h42v-125z m-42-125h75l-75-88v-37h125v41h-75l75 88v37h-125v-41z m209 250v-84h583v84h-583z m0-584h583v84h-583v-84z m0 250h583v84h-583v-84z" horiz-adv-x="1000" />
<glyph glyph-name="clearhtml" unicode="&#xe829;" d="m750 683v42c0 23-19 42-42 42h-500c-23 0-41-19-41-42v-167c0-23 18-41 41-41h500c23 0 42 18 42 41v42h42v-167h-417v-458c0-23 19-42 42-42h83c23 0 42 19 42 42v375h333v333h-125z" horiz-adv-x="1000" />
<glyph glyph-name="quote" unicode="&#xe830;" d="m250 142h125l83 166v250h-250v-250h125z m333 0h125l84 166v250h-250v-250h125z" horiz-adv-x="1000" />
<glyph glyph-name="fontsize" unicode="&#xe831;" d="m375 683v-125h208v-500h125v500h209v125h-542z m-250-333h125v-292h125v292h125v125h-375v-125z" horiz-adv-x="1000" />
<glyph glyph-name="strikethrough" unicode="&#xe832;" d="m417 58h166v125h-166v-125z m-209 625v-125h209v-125h166v125h209v125h-584z m-83-416h750v83h-750v-83z" horiz-adv-x="1000" />
<glyph glyph-name="underline" unicode="&#xe833;" d="m500 142c138 0 250 112 250 250v333h-104v-333c0-81-65-146-146-146s-146 65-146 146v333h-104v-333c0-138 112-250 250-250z m-292-84v-83h584v83h-584z" horiz-adv-x="1000" />
<glyph glyph-name="functions" unicode="&#xe834;" d="m750 683h-500v-83l271-250-271-250v-83h500v125h-292l209 208-209 208h292z" horiz-adv-x="1000" />
<glyph glyph-name="comment" unicode="&#xe835;" d="m833 767h-666c-46 0-84-38-84-84v-500c0-46 38-83 84-83h583l167-167v750c0 46-38 84-84 84z m-83-500h-500v83h500v-83z m0 125h-500v83h500v-83z m0 125h-500v83h500v-83z" horiz-adv-x="1000" />
<glyph glyph-name="emoticons" unicode="&#xe836;" d="m500 767c-230 0-417-187-417-417s187-417 417-417c230 0 417 187 417 417s-187 417-417 417z m0-750c-184 0-333 149-333 333s149 333 333 333 333-149 333-333-149-333-333-333z m146 375c34 0 62 28 62 62s-28 63-62 63-63-28-63-63 28-62 63-62z m-292 0c35 0 63 28 63 62s-28 63-63 63-62-28-62-63 28-62 62-62z m146-271c97 0 179 61 213 146h-426c34-85 116-146 213-146z" horiz-adv-x="1000" />
<glyph glyph-name="link" unicode="&#xe837;" d="m163 350c0 71 57 129 129 129h166v79h-166c-115 0-209-93-209-208s94-208 209-208h166v79h-166c-72 0-129 58-129 129z m170-42h334v84h-334v-84z m375 250h-166v-79h166c72 0 130-58 130-129s-58-129-130-129h-166v-79h166c115 0 209 93 209 208s-94 208-209 208z" horiz-adv-x="1000" />
<glyph glyph-name="image" unicode="&#xe838;" d="m875 58v584c0 46-37 83-83 83h-584c-46 0-83-37-83-83v-584c0-46 37-83 83-83h584c46 0 83 37 83 83z m-521 230l104-126 146 188 188-250h-584l146 188z" horiz-adv-x="1000" />
<glyph glyph-name="wraptext" unicode="&#xe839;" d="m167 58h250v84h-250v-84z m666 584h-666v-84h666v84z m-125-250h-541v-84h552c46 0 83-37 83-83s-37-83-83-83h-94v83l-125-125 125-125v83h83c92 0 167 75 167 167s-75 167-167 167z" horiz-adv-x="1000" />
<glyph glyph-name="multiimage" unicode="&#xe840;" d="m917 183v500c0 46-38 84-84 84h-500c-46 0-83-38-83-84v-500c0-46 37-83 83-83h500c46 0 84 37 84 83z m-459 167l85-113 124 155 166-209h-500l125 167z m-375 250v-583c0-46 38-84 84-84h583v84h-583v583h-84z" horiz-adv-x="1000" />
<glyph glyph-name="map" unicode="&#xe841;" d="m854 725c-2 0-4 0-6-1l-223-86-250 87-235-79c-8-3-15-11-15-20v-630c0-12 9-21 21-21 2 0 4 0 6 1l223 87 250-88 235 79c9 3 15 11 15 20v630c0 12-9 21-21 21z m-229-667l-250 88v496l250-88v-496z" horiz-adv-x="1000" />
<glyph glyph-name="fullscreen" unicode="&#xe842;" d="m292 267h-84v-209h209v84h-125v125z m-84 166h84v125h125v84h-209v-209z m500-291h-125v-84h209v209h-84v-125z m-125 500v-84h125v-125h84v209h-209z" horiz-adv-x="1000" />
<glyph glyph-name="wordpaste" unicode="&#xe843;" d="m624 385l43 0-50-220-64 309-103 0-75-309-56 309-109 0 110-497 106 0 74 294 66-294 98 0 126 497-166 0z m256 269l-139 138c-30 30-89 55-132 55l-466 0c-43 0-78-35-78-77l0-840c0-42 35-77 78-77l714 0c43 0 78 35 78 77l0 591c0 43-25 102-55 133z m-194 103c5-3 8-6 11-9l139-138c3-3 6-7 9-11l-159 0 0 158z m187-827c0-8-7-15-16-15l-714 0c-9 0-16 7-16 15l0 840c0 8 7 15 16 15l466 0c4 0 10-1 15-2l0-247 247 0c1-5 2-10 2-15l0-591z" horiz-adv-x="1000" />
<glyph glyph-name="superscript" unicode="&#xe844;" d="m501 86l0-93-139 0-88 141-14 23q-4 5-6 12l-2 0-5-12q-5-11-14-25l-86-139-144 0 0 93 71 0 110 162-103 152-77 0 0 94 154 0 78-127q1-2 13-24 4-5 6-11l2 0q1 5 6 11l14 24 78 127 143 0 0-94-69 0-103-149 114-165 61 0z m355 379l0-115-287 0-1 15q-3 16-3 26 0 36 15 65t36 48 47 37 47 30 36 30 15 36q0 21-17 35t-39 14q-29 0-54-22-8-6-20-21l-59 51q15 21 35 37 47 36 105 36 62 0 99-33t38-89q0-31-13-57t-35-43-45-32-46-29-37-28-17-36l130 0 0 45 70 0z" horiz-adv-x="1000" />
<glyph glyph-name="subscript" unicode="&#xe845;" d="m501 86l0-93-139 0-88 141-14 23q-4 5-6 12l-2 0-5-12q-5-11-14-25l-86-139-144 0 0 93 71 0 110 162-103 152-77 0 0 94 154 0 78-127q1-2 13-24 4-5 6-11l2 0q1 5 6 11l14 24 78 127 143 0 0-94-69 0-103-149 114-165 61 0z m356-121l0-115-287 0-2 15q-2 25-2 26 0 35 15 65t36 48 47 37 47 30 36 30 15 36q0 21-17 35t-39 14q-28 0-54-22-8-6-20-21l-59 51q15 21 35 37 45 36 105 36 62 0 100-33t37-89q0-37-19-66t-47-48-55-35-49-35-23-41l130 0 0 45 70 0z" horiz-adv-x="1000" />
<glyph glyph-name="flash" unicode="&#xe846;" d="m705 494l0 94c0 0-179 59-257-227-51-187-153-184-153-184l0-90c0 0 173-43 240 212l136 3 0 102-96 5c0 0 48 91 130 85l0 0z m158-619l-725 0c-56 0-102 45-102 101l0 725c0 56 46 101 102 101l725 0c55 0 101-45 101-101l0-725c0-56-46-101-101-101z m-725 882c-32 0-57-25-57-56l0-725c0-31 25-57 57-57l725 0c31 0 56 26 56 57l0 725c0 31-25 56-56 56l-725 0z" horiz-adv-x="1000" />
<glyph glyph-name="unlink" unicode="&#xe847;" d="m466 191c4-9 7-19 7-29 0-17-7-33-19-45l-160-160c-11-12-28-19-45-19s-33 7-45 19l-97 97c-12 12-19 28-19 45s7 34 19 45l160 160c12 12 28 19 45 19 10 0 20-3 29-7l64 64c-28 20-60 31-93 31-39 0-78-15-108-44l-160-160c-59-59-59-156 0-216l98-97c29-29 68-44 107-44s78 15 108 44l160 160c54 55 58 141 13 201l-64-64z m490 518l-97 97c-30 29-69 44-108 44s-78-15-108-44l-159-160c-55-54-59-141-13-200l63 63c-4 9-6 19-6 29 0 18 6 34 18 46l160 159c12 12 28 19 45 19s33-7 45-19l97-97c12-12 19-28 19-45s-7-33-19-45l-159-160c-12-12-28-19-46-19-10 0-20 3-29 7l-63-64c27-20 60-31 92-31 39 0 78 15 108 45l160 159c59 59 59 156 0 216z m-728-131l-188 187 45 45 187-188z m147 272l63 0 0-187-63 0z m-375-375l188 0 0-62-188 0z m772-353l188-187-45-45-187 188z m-209-84l62 0 0-188-62 0z m250 250l187 0 0-63-187 0z" horiz-adv-x="1001" />
<glyph glyph-name="about" unicode="&#xe848;" d="m493 850c-276-4-497-231-493-507 4-276 231-497 507-493 276 4 497 231 493 507-4 276-231 497-507 493l0 0z m56-167c51 0 66-29 66-63 0-42-34-81-92-81-48 0-71 24-69 64 0 34 28 80 95 80z m-131-645c-34 0-60 21-35 113l39 165c7 26 8 37 0 37-10 0-55-19-82-37l-17 29c84 70 182 112 223 112 35 0 41-41 23-104l-45-173c-8-31-5-41 3-41 11 0 45 12 78 39l20-27c-82-82-172-113-207-113l0 0z" horiz-adv-x="1000" />
<glyph glyph-name="anchor" unicode="&#xe849;" d="m0 850l0 0 0 0z m924-799c-92-124-252-202-424-201-172-1-332 77-424 201l-76-76 0 250 250 0-69-69c55-91 148-157 257-175l0 378c-108 28-188 125-188 241 0 138 112 250 250 250s250-112 250-250c0-116-80-213-187-241l0-378c108 18 201 84 256 175l-69 69 250 0 0-250-76 76z m-299 549c0 69-56 125-125 125s-125-56-125-125c0-69 56-125 125-125s125 56 125 125z" horiz-adv-x="1000" />
<glyph glyph-name="pagebreak" unicode="&#xe850;" d="m0 350l125 0 0-62-125 0z m188 0l187 0 0-62-187 0z m250 0l125 0 0-62-125 0z m187 0l188 0 0-62-188 0z m250 0l125 0 0-62-125 0z m-16 500l16-437-750 0 16 437 31 0 16-375 625 0 15 375z m-718-1000l-16 375 750 0-16-375-31 0-15 313-625 0-16-313z" horiz-adv-x="1000" />
<glyph glyph-name="hr" unicode="&#xe851;" d="m0 413l1000 0 0-125-1000 0z" horiz-adv-x="1000" />
<glyph glyph-name="fontname" unicode="&#xe852;" d="m781 834c-89 0-145 16-236 16-295 0-432-168-432-338 0-100 48-133 141-133-6 15-18 30-18 102 0 199 75 257 172 261 0 0-80-775-309-868l0-24 309 0 106 500 193 0 43 125-210 0 51 240c58-11 115-23 164-23 60 0 116 18 146 158-37-12-77-16-120-16z" horiz-adv-x="1000" />
<glyph glyph-name="iconfont-h" unicode="&#xe853;" d="m228 693l46 0 47 0 0-281 357 0 0 281 46 0 47 0 0-685-46 0-47 0 0 322-357 0 0-322-46 0-47 0 0 685z" horiz-adv-x="1000" />
<glyph glyph-name="source" unicode="&#xe854;" d="m692 850l-580 0c-47 0-54-7-54-54l0-892c0-47 7-54 54-54l776 0c47 0 54 7 54 54l0 696-250 250z m-403-635l-39 0 0 97-115 0 0-97-39 0 0 231 39 0 0-96 115 0 0 96 39 0 0-231z m211 193l-77 0 0-193-38 0 0 193-77 0 0 38 192 0 0-38z m231-193l-39 0 0 182-52-182-30 0-52 182 0-182-39 0 0 231 58 0 48-157 48 157 58 0 0-231z m173 0l-135 0 0 231 39 0 0-192 96 0 0-39z m-128 379c-52 0-89 37-89 90l0 153 242-243-153 0z" horiz-adv-x="1000" />
<glyph glyph-name="code" unicode="&#xe855;" d="m813-150l-625 0c-104 0-188 84-188 188l0 625c0 103 84 187 188 187l625 0c103 0 187-84 187-187l0-625c0-104-84-188-187-188z m62 813c0 34-28 62-62 62l-625 0c-35 0-63-28-63-62l0-625c0-35 28-63 63-63l625 0c34 0 62 28 62 63l0 625z m-125-375l0-63c0-103-84-187-187-187l0 125c34 0 62 27 62 62l0 63c35 0 63 28 63 62s-28 63-63 63l0 62c0 35-28 63-62 63l0 125c103 0 187-84 187-188l0-62c35 0 63-28 63-63s-28-62-63-62z m-500-63l0 63c-34 0-62 28-62 62s28 63 62 63l0 62c0 104 84 188 188 188l0-125c-35 0-63-28-63-63l0-62c-34 0-62-28-62-63s28-62 62-62l0-63c0-35 28-62 63-62l0-125c-104 0-188 84-188 187z" horiz-adv-x="1000" />
</font>
</defs>
</svg>
